<?xml version="1.0" standalone="no"?> <!DOCTYPE svg PUBLIC "-//W3C//DTD SVG 1.0//EN" "http://www.w3.org/TR/2001/REC-SVG-20010904/DTD/svg10.dtd" > <svg xmlns="http://www.w3.org/2000/svg" width="100%" height="100%">
<defs >
<font horiz-adv-x="488" ><font-face
    font-family="Bookplate"
    units-per-em="1000"
    panose-1="0 0 0 0 0 0 0 0 0 0"
    ascent="885"
    descent="-252"
    alphabetic="0" />
<missing-glyph horiz-adv-x="800" d="M50 0V800H750V0H50ZM700 50V750H100V50H700Z" />
<glyph unicode=" " glyph-name="space" horiz-adv-x="315" />
<glyph unicode="!" glyph-name="exclam" horiz-adv-x="299" d="M221 584Q221 542 207 471Q183 347 180 331Q165 236 165 155H134Q134 243 118 334Q114 354 88 470Q72 540 72 579Q71 588 71 593Q71 634 95 661T149 688Q181 688 199 666Q221 640 221 584ZM214 48Q214
20 198 2T150 -16Q119 -16 101 2T82 49Q82 76 103 98T148 120Q187 120 202 99Q214 82 214 48Z" />
<glyph unicode="&quot;" glyph-name="quotedbl" horiz-adv-x="378" d="M323 630Q311 579 301 528T291 436H260Q260 477 250 530T228 638Q230 655 244 666T276 678Q296 678 309 666T323 630ZM142 646Q142 638 121 525Q110 466 110 436H79Q79 481 71 535T55 646Q55
660 67 669T96 678Q112 678 127 670T142 646Z" />
<glyph unicode="#" glyph-name="numbersign" horiz-adv-x="597" d="M542 404H440L424 280H519V217H416L386 0H323L354 217H220L189 0H126L157 217H55V280H173L189 404H79V466H197L228 677H291L260 466H386L416 677H479L448 466H542V404ZM378 404H252L236 280H362L378
404Z" />
<glyph unicode="$" glyph-name="dollar" horiz-adv-x="613" d="M597 223Q597 125 516 68Q442 16 331 16V-109H291V16Q182 16 108 61T34 169Q34 200 50 221Q70 248 111 248Q135 248 151 235T168 195Q168 188 167 171T166 145Q166 105 183 87Q207 61 270 61L291
62V295Q144 316 90 363Q43 404 43 471Q43 537 102 593Q174 661 291 661V785H331V661Q394 661 472 621Q558 577 558 528Q558 491 539 469T493 446Q470 446 455 460T440 506Q440 558 421 580Q397 608 331 614V397Q453 382 521 341Q597 295 597 223ZM291 404V614Q250
604 209 595Q150 572 150 521Q150 474 182 442Q220 404 291 404ZM503 179Q503 230 435 260Q396 277 331 287V62Q395 62 449 95T503 179Z" />
<glyph unicode="%" glyph-name="percent" horiz-adv-x="897" d="M873 210Q873 114 833 55Q790 -8 716 -8Q624 -8 576 56Q534 112 534 202Q534 292 574 351Q621 420 708 420Q775 420 824 361T873 210ZM708 677L244 0H181L645 677H708ZM347 468Q347 383 307 330Q264
273 189 273Q103 273 56 341Q16 399 16 490Q16 576 53 629Q97 692 181 692Q273 692 314 621Q347 564 347 468ZM802 210Q802 274 782 321Q756 381 708 381Q657 381 631 332T605 202Q605 134 630 87Q660 31 716 31Q767 31 788 94Q802 137 802 210ZM276 490Q276 568
250 610T181 653Q138 653 113 615T87 498Q87 395 110 353T189 311Q239 311 259 359Q276 400 276 490Z" />
<glyph unicode="&amp;" glyph-name="ampersand" horiz-adv-x="794" d="M779 0Q722 -5 690 -5Q615 -5 581 13T527 78Q492 31 430 4T297 -23Q193 -23 116 40Q36 106 36 199Q36 266 88 321T228 412Q198 441 180 476T161 546Q161 605 216 649T339 694Q396 694 443
657T490 560Q490 517 467 482Q436 435 362 397Q420 363 480 293Q539 218 558 195Q599 304 599 354Q599 390 580 405T519 420V459H763V420Q684 420 659 345Q600 166 590 148Q633 84 657 67Q697 39 779 39V0ZM421 566Q421 600 400 623T339 646Q309 646 279 622T249
559Q249 533 264 505T315 443Q366 457 393 492T421 566ZM503 117Q441 205 390 259Q325 329 252 373Q194 339 168 299T142 216Q142 139 198 85Q251 34 319 34Q369 34 418 56T503 117Z" />
<glyph unicode="&apos;" glyph-name="quotesingle" horiz-adv-x="213" d="M177 600Q177 562 155 527Q130 487 79 459L63 490Q92 509 103 521Q126 546 126 576Q108 562 90 562Q68 562 53 580T38 623Q38 647 57 665T110 684Q141 684 159 661T177 600Z" />
<glyph unicode="(" glyph-name="parenleft" horiz-adv-x="299" d="M283 -148Q151 -130 103 -5Q71 78 71 238V303Q71 477 93 554Q137 708 276 723V677Q224 677 199 586T173 303Q173 195 179 116T208 -20Q235 -90 283 -101V-148Z" />
<glyph unicode=")" glyph-name="parenright" horiz-adv-x="299" d="M228 287Q228 48 164 -55Q115 -134 16 -148V-109Q67 -91 93 -24Q115 32 122 123Q126 176 126 287Q126 388 121 447Q113 545 90 605Q63 677 16 677V723Q114 710 163 631Q228 527 228 287Z" />
<glyph unicode="*" glyph-name="asterisk" horiz-adv-x="432" d="M400 427Q400 408 387 393T359 377Q334 377 302 414Q281 438 260 474L244 466Q256 430 260 417Q269 384 269 360Q269 336 260 324T228 311Q206 311 196 324T185 360Q185 382 193 411T213 466L197
474Q145 380 95 380Q80 380 66 394T52 423Q52 448 88 469T189 490V514L168 513Q123 513 88 529T53 572Q53 588 65 601T93 615Q113 615 137 596Q167 566 197 536L213 544Q202 562 194 589T185 641Q185 665 195 678T228 692Q251 692 261 679T272 643Q272 621 264
594T244 544L260 536Q278 565 306 588T360 612Q375 612 387 600T400 570Q400 544 366 529T289 513L268 514V498Q268 496 334 478T400 427Z" />
<glyph unicode="+" glyph-name="plus" horiz-adv-x="597" d="M558 217H346V0H268V217H47V295H268V514H346V295H558V217Z" />
<glyph unicode="," glyph-name="comma" horiz-adv-x="315" d="M227 27Q227 -14 201 -50Q170 -92 110 -117L94 -93Q132 -69 153 -45T181 8Q169 0 158 -4T137 -9Q114 -9 101 9T87 52Q87 78 103 97T150 117Q185 117 206 92T227 27Z" />
<glyph unicode="-" glyph-name="hyphen" horiz-adv-x="394" d="M354 287L323 225H47L79 287H354Z" />
<glyph unicode="." glyph-name="period" horiz-adv-x="315" d="M224 52Q224 23 206 2T158 -20Q129 -20 108 -2T86 46Q86 75 104 96T152 118Q181 118 202 100T224 52Z" />
<glyph unicode="/" glyph-name="slash" horiz-adv-x="597" d="M534 708L157 -155H71L448 708H534Z" />
<glyph unicode="0" glyph-name="zero" horiz-adv-x="613" d="M591 320Q591 192 535 95Q462 -31 323 -31Q169 -31 94 107Q39 208 39 342Q39 465 98 562Q172 684 307 684Q454 684 531 554Q591 452 591 320ZM479 342Q479 470 434 550T307 630Q224 630 183 529Q149
445 149 307Q149 176 192 100T323 24Q405 24 445 119Q479 200 479 342Z" />
<glyph unicode="1" glyph-name="one" horiz-adv-x="613" d="M503 0H150V31Q225 31 245 41Q283 60 283 132V536Q283 575 254 590T157 606V638L331 669H378V132Q378 69 408 46Q429 30 473 30Q480 30 487 30T503 31V0Z" />
<glyph unicode="2" glyph-name="two" horiz-adv-x="613" d="M574 179L527 0H39V78Q152 117 280 253Q419 401 419 511Q419 566 378 602T289 639Q234 639 188 608T141 543Q141 529 158 511T175 468Q175 445 158 430T117 415Q87 415 69 437Q47 465 47 528Q47 601
129 652Q205 699 297 699Q398 699 464 649Q537 594 537 494Q537 406 480 330Q434 268 340 201Q329 193 165 86Q425 86 473 105Q492 113 534 195L574 179Z" />
<glyph unicode="3" glyph-name="three" horiz-adv-x="613" d="M578 190Q578 114 513 56Q434 -15 293 -15Q191 -15 119 29Q42 76 42 149Q42 180 61 197T106 214Q130 214 146 200T162 157Q162 154 159 138T155 113Q155 83 197 62T296 40Q365 40 411 80Q464 126 464
210Q464 298 384 329Q330 350 220 350V397Q230 396 238 396T252 395Q324 395 375 424Q436 459 436 519Q436 569 407 602Q372 641 306 641Q255 641 213 621T170 578Q170 573 183 547Q190 533 190 515Q190 490 174 475T135 460Q113 460 96 480T79 536Q79 609 145
650T315 692Q417 692 481 641Q540 594 540 529Q540 481 504 440T394 373Q478 358 528 306T578 190Z" />
<glyph unicode="4" glyph-name="four" horiz-adv-x="613" d="M613 249L590 187H456Q456 111 474 75T547 38Q559 38 566 39V0H268V39Q317 39 335 52Q365 73 365 141Q365 161 362 187H39L24 225L362 684H456V249H613ZM362 249V584L110 249H362Z" />
<glyph unicode="5" glyph-name="five" horiz-adv-x="613" d="M590 241Q590 107 504 40Q432 -16 318 -16Q180 -16 113 41Q65 82 65 137Q65 167 85 185T130 203Q154 203 170 187T187 139Q186 117 186 106Q186 73 205 57Q231 35 302 35Q375 35 422 77Q479 128 479
233Q479 304 431 348T317 393Q268 393 224 371T150 303L102 319V677H408Q427 676 436 676Q458 676 470 682T487 708H527L511 591H165V397Q198 427 246 443T350 459Q444 459 512 406Q590 345 590 241Z" />
<glyph unicode="6" glyph-name="six" horiz-adv-x="613" d="M590 217Q590 114 511 45T325 -25Q186 -25 108 74Q34 167 34 320Q34 473 110 575Q195 689 341 689Q426 689 498 645T571 544Q571 524 557 512T522 500Q485 500 465 546Q422 647 337 647Q261 647 211
580Q150 498 150 335Q179 379 230 402T341 426Q434 426 509 369Q590 307 590 217ZM471 202Q471 254 444 302Q404 373 323 373Q251 373 208 324T165 202Q165 132 210 82T323 31Q377 31 420 73Q471 123 471 202Z" />
<glyph unicode="7" glyph-name="seven" horiz-adv-x="613" d="M590 614Q554 572 519 530Q436 427 386 318Q315 162 315 0H181Q196 113 256 236Q308 342 383 443Q442 522 511 591Q461 591 396 593T327 596Q198 596 153 575Q114 557 94 498H63L87 677H582L590 614Z" />
<glyph unicode="8" glyph-name="eight" horiz-adv-x="613" d="M579 200Q579 115 503 52Q421 -16 299 -16Q181 -16 108 44Q41 99 41 178Q41 233 78 281T189 358Q129 388 99 430T68 517Q68 586 138 643T307 700Q413 700 484 647Q552 597 552 528Q552 485 521 449Q486
408 416 381Q497 355 540 304Q579 258 579 200ZM461 532Q461 597 417 628Q380 654 322 654Q260 654 212 618T164 538Q164 492 214 456T346 404Q407 415 437 455Q461 487 461 532ZM487 163Q487 232 423 272Q379 299 252 335Q199 323 163 274T127 167Q127 101 182
64Q231 31 307 31Q380 31 431 64Q487 101 487 163Z" />
<glyph unicode="9" glyph-name="nine" horiz-adv-x="613" d="M566 344Q566 180 482 76T276 -29Q196 -29 128 10T60 100Q60 126 77 144T118 163Q153 163 166 120Q194 26 272 26Q345 26 396 83Q458 152 458 283Q458 296 458 302Q458 310 458 318Q456 330 456 335Q408
285 358 261T256 237Q163 237 96 304T28 463Q28 555 96 621Q172 695 296 695Q410 695 482 616Q566 523 566 344ZM448 459Q448 530 426 573Q388 646 291 646Q218 646 174 594Q134 546 134 474Q134 415 162 365Q201 295 276 295Q350 295 399 341T448 459Z" />
<glyph unicode=":" glyph-name="colon" horiz-adv-x="315" d="M213 431Q213 405 194 387T146 368Q120 368 102 387T83 435Q83 461 102 479T150 498Q176 498 194 479T213 431ZM218 54Q218 28 197 10T148 -8Q122 -8 104 13T86 62Q86 88 107 106T156 124Q182 124
200 103T218 54Z" />
<glyph unicode=";" glyph-name="semicolon" horiz-adv-x="315" d="M214 428Q214 400 197 380T152 360Q124 360 104 377T84 422Q84 450 101 470T146 490Q174 490 194 473T214 428ZM226 25Q226 -19 199 -59Q169 -103 118 -124L102 -101Q138 -76 153 -53Q155 -51
181 0Q157 -15 139 -15Q115 -15 101 2T86 44Q86 66 105 87T150 109Q184 109 205 85T226 25Z" />
<glyph unicode="&lt;" glyph-name="less" horiz-adv-x="597" d="M558 -16L47 225V295L558 521V443L150 265L558 62V-16Z" />
<glyph unicode="=" glyph-name="equal" horiz-adv-x="597" d="M558 311H47V389H558V311ZM558 117H47V195H558V117Z" />
<glyph unicode="&gt;" glyph-name="greater" horiz-adv-x="597" d="M550 225L39 -8V70L448 257L39 451V528L550 295V225Z" />
<glyph unicode="?" glyph-name="question" horiz-adv-x="534" d="M503 517Q503 427 438 380Q377 347 316 314Q250 271 250 194Q250 186 251 177T252 163H205Q199 201 199 227Q199 303 250 345Q297 376 345 408Q397 450 397 526Q397 586 350 620Q308 650 246 650Q193
650 154 627T114 567Q114 554 124 532T135 502Q135 478 117 463T75 448Q49 448 31 470T12 523Q12 594 78 643Q148 695 253 695Q356 695 424 654Q503 606 503 517ZM293 66Q293 38 280 21Q264 0 236 0Q198 0 181 17T163 64Q163 92 184 110T231 129Q256 129 274 112T293
66Z" />
<glyph unicode="@" glyph-name="at" horiz-adv-x="818" d="M757 380Q757 280 676 194Q599 112 519 112Q489 112 468 125T432 171Q407 145 377 132T316 119Q260 119 225 156Q187 196 187 262Q187 364 252 448Q321 537 413 537Q452 537 481 524T519 490L534 521H613Q566
392 536 302Q503 204 503 155Q511 149 525 149Q578 149 640 215Q710 290 710 380Q710 495 618 565Q534 629 414 629Q286 629 200 555Q102 471 102 319Q102 188 207 103Q305 24 435 24Q520 24 588 61Q662 101 700 179H747Q728 104 641 42Q545 -26 426 -26Q263 -26
154 82Q52 183 52 318Q52 464 153 569Q259 679 415 679Q554 679 655 590T757 380ZM495 447Q495 473 483 487T443 502Q378 502 323 411T267 217Q267 188 284 167T331 145Q385 145 443 270Q495 382 495 447Z" />
<glyph unicode="A" glyph-name="A" horiz-adv-x="676" d="M716 0H432V39Q474 39 491 48T509 76Q509 90 497 120Q456 224 448 249H189Q182 222 159 162Q141 114 141 95Q141 69 162 54T236 39V0H-47V39Q1 44 27 65T71 140L291 677H386L597 140Q628 66 662 49Q700
42 716 39V0ZM424 295L315 576L205 295H424Z" />
<glyph unicode="B" glyph-name="B" horiz-adv-x="731" d="M706 187Q706 112 651 59Q589 0 479 0H31V39Q84 46 95 54Q118 72 118 140V544Q118 599 99 617Q84 631 31 638V677H339Q503 677 590 625Q663 581 663 514Q663 466 633 428Q596 382 519 365Q604 365 657
309Q706 257 706 187ZM559 509Q559 560 518 591Q463 633 342 633Q271 633 252 622Q217 601 217 521L220 389Q355 389 401 393Q483 400 518 423Q559 450 559 509ZM590 210Q590 293 519 317T220 342Q221 332 221 319T221 291Q221 283 221 279Q221 261 221 249T220
228Q220 93 257 61Q279 42 376 42Q470 42 530 87T590 210Z" />
<glyph unicode="C" glyph-name="C" horiz-adv-x="731" d="M700 148Q644 60 560 14Q482 -29 392 -29Q251 -29 145 68Q31 172 31 327Q31 474 135 579T377 685Q432 685 483 666T582 606L597 661H629L684 420H637Q608 519 534 581T378 643Q289 643 227 567Q157 481
157 335Q157 191 238 108Q312 33 419 33Q490 33 551 67T653 171L700 148Z" />
<glyph unicode="D" glyph-name="D" horiz-adv-x="794" d="M755 342Q755 180 660 90T402 0H31V39Q41 39 47 39Q86 39 101 47Q126 60 126 101V536Q126 591 102 613Q82 631 31 638V677H339Q551 677 662 570Q755 480 755 342ZM629 330Q629 479 541 558Q465 626 350
626Q298 626 263 611T228 568V93Q228 76 271 58T367 40Q465 40 542 113Q629 196 629 330Z" />
<glyph unicode="E" glyph-name="E" horiz-adv-x="716" d="M708 202L613 0H24V39Q68 39 89 49Q118 63 118 101V536Q118 580 98 604Q75 632 24 638V677H597L676 490L645 474Q597 557 512 599Q440 634 359 634Q300 634 260 617T220 576V373H281Q357 373 379 391Q407
413 416 498H448V202H424Q409 287 356 311Q321 327 220 327V86Q220 64 253 51T338 38Q435 38 522 78Q629 127 676 217L708 202Z" />
<glyph unicode="F" glyph-name="F" horiz-adv-x="637" d="M653 498L621 482Q590 550 502 591Q423 628 338 628Q285 628 253 611T220 560V381Q341 381 367 397Q398 416 408 506H448V202H408Q408 281 366 309Q337 328 271 328Q258 328 246 328T220 327V124Q220 76
250 55Q273 39 315 39V0H24V39Q88 49 89 49Q118 63 118 124V506Q118 575 95 606T24 638V677H574L653 498Z" />
<glyph unicode="G" glyph-name="G" horiz-adv-x="794" d="M779 287Q734 280 722 273Q700 259 700 217V0H645L613 62Q570 24 512 4T387 -17Q245 -17 149 71Q38 173 38 358Q38 489 129 585Q225 686 366 686Q421 686 472 671T574 622L582 669H621L684 459L637 443Q579
535 510 582T375 630Q286 630 225 547T163 333Q163 197 241 113Q312 37 410 37Q476 37 537 84Q602 134 602 197Q602 232 578 257Q549 287 495 287V327H779V287Z" />
<glyph unicode="H" glyph-name="H" horiz-adv-x="794" d="M779 0H487V39Q539 39 556 50T574 93V327H220V117Q220 70 248 53Q271 39 323 39V0H31V39Q78 39 95 49Q118 62 118 101V552Q118 601 92 619Q75 631 24 638V677H315V638Q285 638 256 621Q220 600 220 568V381H574V544Q574
587 550 612T479 638V677H771V638Q713 638 691 606Q676 584 676 544V109Q676 67 700 50Q717 38 749 38Q757 38 764 38T779 39V0Z" />
<glyph unicode="I" glyph-name="I" horiz-adv-x="339" d="M299 0H24V39Q30 38 41 38Q72 38 91 58T110 109V560Q110 605 82 622Q71 628 24 638V677H299V638Q272 632 245 626Q213 611 213 560V109Q213 75 234 56T283 37Q289 37 299 39V0Z" />
<glyph unicode="J" glyph-name="J" horiz-adv-x="597" d="M574 638Q522 638 507 631Q479 618 479 568V187Q479 89 403 32Q334 -20 232 -20Q124 -20 49 42T-26 194Q-26 237 -5 258T46 280Q72 280 92 265T112 225Q112 201 97 182Q64 140 64 132Q64 98 117 69T233
40Q295 40 333 72Q378 110 378 187V568Q378 611 355 624T283 638V677H574V638Z" />
<glyph unicode="K" glyph-name="K" horiz-adv-x="716" d="M755 0H440V39Q487 39 506 46T525 68Q525 77 519 86L346 381L220 273V101Q220 66 242 53T323 39V0H24V39Q70 39 94 55T118 101V568Q118 608 86 625Q62 638 24 638V677H323V638Q278 638 249 626T220 591V342L464
560Q482 578 482 599Q482 616 467 627T416 638V677H700V638Q653 622 632 612Q597 595 566 568L424 443L629 109Q650 74 684 57T755 39V0Z" />
<glyph unicode="L" glyph-name="L" horiz-adv-x="597" d="M637 217L550 0H39V39Q88 45 99 58Q118 79 118 155V560Q118 599 102 616Q82 638 31 638V677H323V638Q294 634 265 631Q228 623 228 568V101Q228 78 253 63T318 48Q388 48 456 87Q538 134 597 225L637 217Z" />
<glyph unicode="M" glyph-name="M" horiz-adv-x="912" d="M905 0H621V39Q664 39 682 54T700 109V584L456 0H408L181 599V101Q181 60 214 47Q234 39 283 39V0H16V39Q73 39 90 46Q118 58 118 101V568Q118 626 72 633Q48 635 24 638V677H260L464 171L668 677H897V638Q855
633 842 627Q810 613 810 560V117Q810 39 905 39V0Z" />
<glyph unicode="N" glyph-name="N" horiz-adv-x="731" d="M723 638Q674 638 658 630Q629 616 629 568V0H542L173 591V109Q173 67 200 53Q213 46 268 39V0H16V39Q63 45 70 47Q110 58 110 109V544Q110 615 85 629Q47 634 24 638V677H244L574 148V568Q574 600 553
617Q527 638 471 638V677H723V638Z" />
<glyph unicode="O" glyph-name="O" horiz-adv-x="794" d="M763 350Q763 203 689 106Q596 -16 408 -16Q224 -16 125 108Q47 206 47 327Q47 487 142 585T402 684Q562 684 667 577Q763 479 763 350ZM646 328Q646 459 571 547Q500 630 402 630Q295 630 227 535Q165
448 165 327Q165 204 220 128Q284 39 408 39Q520 39 586 128Q646 209 646 328Z" />
<glyph unicode="P" glyph-name="P" horiz-adv-x="613" d="M612 481Q612 404 552 352Q486 295 370 295H213V117Q213 73 241 57Q262 45 323 39V0H24V39Q75 44 92 58T110 109V584Q110 615 84 630T24 646V677H339Q457 677 534 625T612 481ZM511 498Q511 561 449 601Q394
636 324 636Q278 636 246 622T213 584V335Q361 335 407 344Q511 364 511 498Z" />
<glyph unicode="Q" glyph-name="Q" horiz-adv-x="818" d="M778 334Q778 262 752 200T676 101Q727 55 727 -6Q727 -97 620 -148Q529 -191 400 -191Q253 -191 170 -139Q104 -98 104 -51Q104 -28 123 -13T167 3Q192 3 210 -15T228 -70Q228 -98 277 -115T393 -133Q486
-133 552 -104Q629 -70 629 -10Q629 17 613 46Q533 -17 414 -17Q268 -17 166 74Q47 180 47 365Q47 515 175 615Q284 700 408 700Q585 700 688 582Q778 478 778 334ZM655 342Q655 470 591 552Q523 638 408 638Q314 638 240 553T165 358Q165 242 221 150T354 46Q336
67 336 90Q336 122 371 145T468 168Q502 168 536 162T613 140Q655 242 655 342ZM566 93Q546 101 516 107T457 114Q431 114 413 108T394 86Q394 65 410 54T453 42Q486 42 518 55T566 93Z" />
<glyph unicode="R" glyph-name="R" horiz-adv-x="716" d="M755 0H590L378 319H228V117Q228 72 251 56T331 39V0H31V39Q92 39 111 56Q126 69 126 109V560Q126 605 111 619Q91 638 24 638V677H432Q545 677 609 622Q667 572 667 500Q667 435 621 387Q571 335 487
327L645 109Q662 90 679 71Q710 43 755 39V0ZM566 521Q566 573 496 605Q435 633 355 633Q302 633 265 622T228 591V373L355 374Q471 374 514 400Q566 431 566 521Z" />
<glyph unicode="S" glyph-name="S" horiz-adv-x="653" d="M634 210Q634 107 545 45Q462 -13 344 -13Q284 -13 233 3T142 54L134 0H94L24 233L63 241Q114 158 163 115Q245 44 353 44Q430 44 482 87T535 191Q535 252 411 290Q295 324 180 358Q55 410 55 505Q55 582
96 628Q150 689 269 689Q327 689 382 676T479 638L495 677H527L590 498L542 482Q516 552 441 593T288 635Q236 635 197 611T157 552Q157 480 280 442Q395 408 510 374Q634 320 634 210Z" />
<glyph unicode="T" glyph-name="T" horiz-adv-x="613" d="M653 498L621 482Q582 544 517 587T404 630Q362 630 362 584V109Q362 37 439 37Q445 37 451 37Q460 39 464 39V0H157V39Q213 39 229 47Q254 60 260 109V584Q260 628 208 628Q154 628 85 584T-8 482L-39
498L16 677H597L653 498Z" />
<glyph unicode="U" glyph-name="U" horiz-adv-x="779" d="M763 638Q714 638 698 631Q668 618 668 576V171Q668 79 583 24Q506 -26 397 -26Q284 -26 206 26Q118 84 118 187V568Q118 614 86 629Q67 638 24 638V677H315V638Q266 638 243 624T220 576V187Q220 113
280 69Q335 29 413 29Q494 29 550 68Q613 112 613 187V576Q613 612 580 627Q556 638 511 638V677H763V638Z" />
<glyph unicode="V" glyph-name="V" horiz-adv-x="692" d="M723 638Q673 638 648 627T613 591L378 0H307L71 568Q53 614 34 626T-39 638V677H268V638Q241 635 215 633Q181 628 181 604Q181 589 197 544L362 117L534 568Q537 582 537 591Q537 612 524 621T448 638V677H723V638Z"
/>
<glyph unicode="W" glyph-name="W" horiz-adv-x="952" d="M975 638Q927 630 920 626Q897 614 881 568L684 0H613L471 428L339 0H268L55 591Q49 609 30 620T-31 638V677H244V638Q212 634 206 633Q181 628 181 607Q181 592 197 544L331 155L440 528Q447 555 409
593T331 638V677H605V638Q570 634 561 632Q531 624 531 594Q531 568 550 514L676 148L802 536Q814 564 814 585Q814 614 785 626Q772 631 723 638V677H975V638Z" />
<glyph unicode="X" glyph-name="X" horiz-adv-x="716" d="M755 0H432V39Q468 39 489 47T510 73Q510 91 487 117L346 303L189 117Q178 103 178 86Q178 66 198 53T260 39V0H-31V39Q8 50 50 71T110 109L315 350L118 599Q101 615 81 624Q50 638 8 638V677H323V638Q285
633 266 625T246 603Q246 592 260 576L394 412L511 568Q515 575 520 585T525 604Q525 618 510 626T456 638V677H723V638Q672 631 651 622Q618 609 590 576L416 373L645 86Q679 39 755 39V0Z" />
<glyph unicode="Y" glyph-name="Y" horiz-adv-x="637" d="M668 638Q640 632 612 627Q580 616 550 576L362 287V117Q362 68 390 52Q413 39 471 39V0H150V39Q208 39 225 49Q252 65 252 124V287L79 568Q43 627 -24 638V677H260V638Q217 633 216 633Q182 627 182 606Q182
588 213 544L339 358L471 560Q489 587 489 603Q489 631 416 638V677H668V638Z" />
<glyph unicode="Z" glyph-name="Z" horiz-adv-x="637" d="M660 195L590 0H24L8 31L487 622Q466 622 439 623T381 626Q266 626 202 596T79 482L39 498L118 677H613L621 638L157 54Q241 42 300 42Q418 42 495 79Q582 121 621 210L660 195Z" />
<glyph unicode="[" glyph-name="bracketleft" horiz-adv-x="299" d="M260 -132H87V723H252V677Q212 677 199 662Q181 642 181 576V-8Q181 -51 203 -70Q222 -86 260 -86V-132Z" />
<glyph unicode="\" glyph-name="backslash" horiz-adv-x="597" d="M527 0H440L63 723H157L527 0Z" />
<glyph unicode="]" glyph-name="bracketright" horiz-adv-x="299" d="M205 -132H39V-86Q83 -80 96 -67T110 -8V591Q110 653 93 666Q90 669 39 677V723H205V-132Z" />
<glyph unicode="^" glyph-name="asciicircum" horiz-adv-x="597" d="M550 273H471L299 584L134 273H47L260 677H339L550 273Z" />
<glyph unicode="_" glyph-name="underscore" horiz-adv-x="495" d="M495 -140H0V-78H495V-140Z" />
<glyph unicode="`" glyph-name="grave" horiz-adv-x="456" d="M402 584L394 560L236 599Q211 605 199 618T187 647Q187 664 199 675T232 687Q257 687 283 669L402 584Z" />
<glyph unicode="a" glyph-name="a" horiz-adv-x="574" d="M590 31Q579 10 554 -2T496 -15Q457 -15 425 4T378 62Q348 28 300 10T199 -9Q135 -9 83 23T31 101Q31 188 128 233Q206 269 378 287Q382 308 382 330Q382 393 343 423Q312 447 259 447Q197 447 175 431Q160
420 160 397Q161 387 161 382Q161 354 146 339T109 324Q88 324 73 336T57 371Q57 421 125 456T284 492Q362 492 413 464Q471 432 471 373V86Q471 69 491 55T530 40Q552 40 566 54L590 31ZM378 109V241Q261 226 209 206Q134 177 134 124Q134 93 163 68T238 42Q269
42 304 58T378 109Z" />
<glyph unicode="b" glyph-name="b" horiz-adv-x="613" d="M582 241Q582 119 509 50Q443 -12 347 -12Q245 -12 173 54L150 0H87V576Q87 638 40 647Q6 651 -8 653V684Q34 684 74 690Q133 699 150 715H189V428Q228 462 275 481T368 501Q458 501 517 436Q582 365 582
241ZM479 241Q479 340 435 395Q395 445 333 445Q257 445 189 373V101Q217 69 250 54T319 38Q386 38 432 92T479 241Z" />
<glyph unicode="c" glyph-name="c" horiz-adv-x="519" d="M495 109Q462 57 403 29T275 0Q173 0 107 60Q31 129 31 257Q31 383 115 444Q181 492 283 492Q382 492 440 444Q485 407 485 367Q485 343 469 327T430 310Q408 310 393 329T378 389Q378 414 348 432T277
451Q206 451 172 390Q144 339 144 251Q144 159 186 101T310 43Q354 43 392 65T464 132L495 109Z" />
<glyph unicode="d" glyph-name="d" horiz-adv-x="613" d="M597 0H424V70Q398 34 354 14T259 -6Q169 -6 109 55Q39 126 39 257Q39 352 103 423T265 495Q304 495 342 483T424 443V599Q424 621 407 634Q383 653 331 653V684Q376 684 412 693T471 715H519V124Q519
31 597 31V0ZM424 124V389Q408 414 371 430T291 447Q228 447 189 406Q142 356 142 257Q142 151 188 94Q229 43 291 43Q331 43 367 64T424 124Z" />
<glyph unicode="e" glyph-name="e" horiz-adv-x="519" d="M495 109Q467 49 411 18T287 -14Q184 -14 110 57Q33 131 33 243Q33 357 102 425T274 494Q364 494 421 445Q487 389 487 287H142Q142 160 196 92Q243 33 315 33Q359 33 397 56T456 124L495 109ZM386 335Q380
389 351 420T268 451Q224 451 190 421T150 335H386Z" />
<glyph unicode="f" glyph-name="f" horiz-adv-x="315" d="M414 678Q414 659 400 645T365 630Q335 630 318 657T270 684Q238 684 220 645Q197 596 197 490H299V451H197V101Q197 72 225 52T291 31V0H16V31Q54 31 78 48T102 101V451H16V490H102Q102 624 168 686Q222
736 318 736Q355 736 384 720T414 678Z" />
<glyph unicode="g" glyph-name="g" horiz-adv-x="534" d="M549 -80Q549 -149 476 -195T278 -241Q143 -241 74 -202Q14 -168 14 -115Q14 -80 40 -49T110 0Q77 11 61 31T45 75Q45 109 71 140T134 179Q97 214 80 250T62 322Q62 396 125 449T269 502Q315 502 354 482Q389
531 427 555Q459 575 488 575Q517 575 533 557Q545 543 545 525Q545 488 505 488Q500 488 472 498Q455 504 446 504Q426 504 418 500T394 474Q436 435 457 394T478 312Q478 242 421 195T275 147Q225 147 173 163Q130 134 130 115Q130 80 238 69Q401 52 440 40Q549
7 549 -80ZM378 342Q378 397 353 428T276 459Q225 459 195 423T165 335Q165 276 187 238Q216 187 276 187Q334 187 359 238Q378 277 378 342ZM471 -109Q471 -50 301 -33Q184 -21 165 -16Q127 -32 106 -57T85 -110Q85 -156 151 -182Q209 -205 287 -205Q364 -205
417 -178T471 -109Z" />
<glyph unicode="h" glyph-name="h" horiz-adv-x="653" d="M637 0H370V31Q414 31 431 40Q456 53 456 93V358Q456 387 435 407Q411 430 372 430Q339 430 298 413T205 358V101Q205 60 233 43Q253 31 291 31V0H16V31Q56 31 75 42Q102 58 102 101V568Q102 609 86 624T16
646V677Q50 677 90 687T165 708H205V404Q235 439 293 462T410 485Q471 485 510 458T550 373V93Q550 45 595 35Q613 31 637 31V0Z" />
<glyph unicode="i" glyph-name="i" horiz-adv-x="299" d="M219 587Q219 560 202 541T160 522Q133 522 114 539T95 581Q95 608 112 627T154 646Q181 646 200 629T219 587ZM291 0H24V31Q66 31 90 56Q110 77 110 109V358Q110 395 84 411T16 428V459L173 482H213V109Q213
71 236 51T291 31V0Z" />
<glyph unicode="j" glyph-name="j" horiz-adv-x="299" d="M217 593Q217 566 200 547T156 528Q129 528 110 545T91 589Q91 616 108 635T152 654Q179 654 198 637T217 593ZM213 -78Q213 -160 125 -211Q54 -252 -21 -252Q-56 -252 -81 -230T-107 -189Q-107 -171 -94
-159T-62 -147Q-37 -147 -11 -173T35 -200Q65 -200 87 -172T110 -93V335Q110 391 81 410Q67 419 16 428V459L173 482L213 474V-78Z" />
<glyph unicode="k" glyph-name="k" horiz-adv-x="613" d="M637 0H362V31Q394 31 407 37T420 56Q420 64 413 78T402 101L291 249L213 179V78Q213 47 244 37Q262 31 299 31V0H31V31Q66 31 84 42Q110 58 110 101V568Q110 615 82 633Q62 646 24 646V677Q50 678 70
680T165 708H205V241L362 373Q382 393 382 409Q382 422 368 431T331 443V474H590V443Q542 438 508 423T432 373L362 311L527 93Q576 31 637 31V0Z" />
<glyph unicode="l" glyph-name="l" horiz-adv-x="299" d="M291 0H16V31Q55 31 74 43Q102 61 102 109V560Q102 614 76 632Q56 646 8 646V677Q52 683 97 689Q132 696 165 708H205V109Q205 58 236 41Q254 31 291 31V0Z" />
<glyph unicode="m" glyph-name="m" horiz-adv-x="936" d="M944 0H684V31Q718 31 738 45Q763 63 763 101V365Q763 387 744 406Q721 429 682 429Q653 429 620 417T542 373V117Q542 42 621 31V0H362V31Q416 40 428 57T440 117V365Q440 388 422 408Q400 433 361 433Q333
433 297 419T213 373V101Q213 68 233 53T291 31V0H31V31Q80 43 93 56Q110 72 110 101V373Q110 395 84 412T24 436V466Q34 466 39 466Q78 466 104 468T173 482H213V428Q257 458 306 476T404 494Q447 494 482 476T542 420Q585 453 634 471T729 489Q789 489 827 460T865
373V101Q865 71 887 51T944 31V0Z" />
<glyph unicode="n" glyph-name="n" horiz-adv-x="653" d="M653 0H386V31Q422 31 439 43Q464 61 464 109V342Q464 376 447 403Q423 440 380 440Q349 440 308 421T213 358V109Q213 31 299 31V0H24V31Q60 31 82 46Q110 65 110 109V358Q110 399 82 416Q62 428 24 428V459L173
482H213V412Q276 454 329 474T425 494Q492 494 531 451Q566 412 566 358V109Q566 67 597 47Q621 31 653 31V0Z" />
<glyph unicode="o" glyph-name="o" horiz-adv-x="558" d="M527 249Q527 139 462 64Q393 -16 283 -16Q172 -16 102 58T31 241Q31 347 100 418T283 490Q388 490 457 421T527 249ZM416 249Q416 328 386 380Q350 443 283 443Q215 443 176 378Q142 321 142 241Q142
149 174 94Q211 31 283 31Q351 31 383 84T416 249Z" />
<glyph unicode="p" glyph-name="p" horiz-adv-x="613" d="M582 233Q582 121 507 51Q440 -11 352 -11Q308 -11 270 4T205 46V-117Q205 -146 231 -166T299 -187V-217H16V-187Q59 -187 74 -179Q102 -164 102 -117V358Q102 401 80 414T16 428V459L165 482H205V428Q281
492 365 492Q456 492 517 425Q582 353 582 233ZM471 233Q471 332 435 383T338 434Q270 434 205 373V101Q262 41 325 41Q386 41 428 94T471 233Z" />
<glyph unicode="q" glyph-name="q" horiz-adv-x="574" d="M590 -225H307V-195Q343 -195 365 -180Q394 -160 394 -117V46Q366 17 331 2T257 -13Q166 -13 102 51Q31 122 31 241Q31 342 94 417T250 493Q290 493 331 478T416 428L448 482H503V-109Q503 -148 527 -171T590
-195V-225ZM394 101V389Q336 434 282 434Q218 434 180 375T141 236Q141 156 179 99T276 41Q304 41 333 55T394 101Z" />
<glyph unicode="r" glyph-name="r" horiz-adv-x="432" d="M448 420Q448 403 431 387T387 371Q366 371 331 392Q315 402 303 400Q277 397 258 389Q229 377 205 350V109Q205 69 226 50T299 31V0H16V31Q62 31 77 40Q102 55 102 109V350Q102 391 74 408Q54 420 16
420V451L165 474H205V404Q239 437 287 459T378 481Q410 481 429 466T448 420Z" />
<glyph unicode="s" glyph-name="s" horiz-adv-x="519" d="M498 159Q498 90 436 43T289 -5Q246 -5 204 9T126 54L110 8H79L55 187H79Q104 117 164 78Q217 44 279 44Q332 44 369 71T407 133Q407 172 317 198Q159 243 149 247Q58 285 58 355Q58 413 114 453T252 494Q290
494 324 484T386 451L402 490H424L456 335H424Q406 386 351 418T239 450Q199 450 175 433T150 386Q150 347 240 323Q393 282 407 276Q498 236 498 159Z" />
<glyph unicode="t" glyph-name="t" horiz-adv-x="378" d="M394 62Q382 30 338 9T242 -13Q189 -13 148 14Q102 45 102 93V451H16V482Q73 482 107 514Q157 560 157 669H205V482H346V451H205V132Q205 84 226 61Q244 41 275 41Q302 41 329 55T362 86L394 62Z" />
<glyph unicode="u" glyph-name="u" horiz-adv-x="676" d="M660 0H471V78Q425 39 367 16T255 -8Q191 -8 153 26Q110 65 110 140V373Q110 399 78 412Q63 418 16 428V459L165 482H205V163Q205 108 229 80T298 51Q335 51 377 68T471 124V358Q471 404 449 416Q442 420
386 428V459L534 482H574V109Q574 69 599 51Q617 38 660 31V0Z" />
<glyph unicode="v" glyph-name="v" horiz-adv-x="519" d="M534 443Q502 437 475 412T424 335L283 0H220L55 389Q42 420 30 429T-24 443V474H228V443Q194 443 179 436T164 408Q164 392 173 365L276 101L378 350Q389 376 389 395Q389 422 363 433Q332 441 323 443V474H534V443Z"
/>
<glyph unicode="w" glyph-name="w" horiz-adv-x="779" d="M810 443Q778 443 747 415Q721 391 708 358L566 0H495L402 273L276 0H205Q193 38 160 131Q139 189 101 293Q72 373 71 373Q60 404 34 423T-24 443V474H220V443Q192 443 181 437T169 406Q169 398 169 391Q169
390 173 373L268 101L378 342L354 404Q348 421 323 432T268 443V474H503V443Q475 443 463 437T450 410Q450 396 456 373L550 109L653 365Q658 380 658 389Q658 413 637 428T582 443V474H810V443Z" />
<glyph unicode="x" glyph-name="x" horiz-adv-x="558" d="M574 0H291V31Q328 31 347 40T367 64Q367 77 354 93L260 210L157 93Q147 79 147 68Q147 47 178 37Q197 31 213 31V0H-16V31Q10 31 28 38T71 70L228 249L102 404Q87 424 59 433T8 443V474H260V443Q233 443
219 440T204 424Q204 416 213 404L291 303L378 397Q392 411 392 422Q392 443 346 443V474H558V443Q528 443 492 428T432 389L315 273L464 93Q487 62 511 47T574 31V0Z" />
<glyph unicode="y" glyph-name="y" horiz-adv-x="534" d="M550 443Q518 443 487 416Q463 395 448 365L268 -78Q236 -160 180 -203Q132 -240 79 -240Q41 -240 14 -224T-13 -177Q-13 -154 0 -138T34 -121Q72 -121 103 -159Q119 -178 135 -178Q174 -178 236 -31L71
358Q49 412 24 430Q6 443 -24 443V474H220V443Q166 443 166 409Q166 399 170 387T181 358L291 101L378 327Q393 366 393 390Q393 437 323 443V474H550V443Z" />
<glyph unicode="z" glyph-name="z" horiz-adv-x="471" d="M479 163L424 0H16L0 31L323 451L273 454Q196 454 141 421T55 319L24 335L79 474H448L456 451L134 46Q151 42 174 40T218 38Q288 38 341 66Q401 98 448 171L479 163Z" />
<glyph unicode="{" glyph-name="braceleft" horiz-adv-x="276" d="M252 -132Q246 -133 240 -133Q232 -133 229 -133Q160 -133 133 -87Q112 -52 112 17V135Q112 207 95 241Q75 282 24 295Q78 295 96 328Q110 354 110 424V576Q110 654 133 682Q161 716 224 716Q242
716 252 715Q208 698 190 661T171 570L172 424Q172 358 157 333T110 295Q149 276 162 253T175 189L176 -5Q176 -55 187 -77Q202 -108 252 -132Z" />
<glyph unicode="|" glyph-name="bar" horiz-adv-x="597" d="M346 0H260V715H346V0Z" />
<glyph unicode="}" glyph-name="braceright" horiz-adv-x="276" d="M252 289Q198 289 180 256Q166 230 166 160V8Q166 -4 166 -11Q166 -61 149 -88Q121 -132 51 -132Q41 -132 35 -132Q28 -131 24 -131Q68 -114 88 -74Q105 -40 105 14L104 160Q104 226 121 254Q135
277 166 289Q127 308 114 331T101 395L103 589Q103 638 91 661Q75 692 24 716Q30 717 36 717Q44 717 47 717Q116 717 143 671Q164 636 164 567V449Q164 377 182 340T252 289Z" />
<glyph unicode="~" glyph-name="asciitilde" horiz-adv-x="597" d="M558 295Q504 183 409 183Q371 183 301 217T201 252Q127 252 94 163L47 210Q80 274 116 303T197 333Q247 333 307 297T404 261Q434 261 459 278Q490 299 511 342L558 295Z" />
</font>
</defs>
</svg>
